SurroundByUs.com

A Stereo-to-Surround Community
It is currently Tue Jan 23, 2018 4:45 pm
  • No posting regarding file sharing of copyrighted material is allowed
  • AudioMuxer is here
  • Spec and SpecWeb are here
 

All times are UTC - 6 hours [ DST ]


Forum rules


The tools and techniques described and provided on this forum are intended for use on material owned by users and for their personal use as covered by "fair use" and other applicable copyright laws. The owners and moderators of this forum do not suggest or condone any violation of copyright or other applicable laws. Any use of these methods outside this forum in a manner which violates "fair use" or copyright is done so at the individual's own peril and is not the responsibility of surroundbyus.com. All Methods and Guides are Copyrighted © SurroundByUs.com. Overall forum rules can be read HERE.



Post new topic Reply to topic  [ 6 posts ] 
Author Message
PostPosted: Fri Jun 18, 2010 8:45 am 
Offline
Surround Junkie

Joined: Wed Sep 02, 2009 10:40 am
Posts: 38
I have encountered a very strange thing for which I cannot find the explanation nor the soultion, so I hope someone here knows what's going on....

I wanted to make a DTS CD from a DVDA and ripped the tracks one by one, resampled them to 44.1 Khz, made 6 wavs out of the MCH's and encoded
each track in Surcode. Till know all pretty standard work.
I took IMGBurn, because that one makes sure there are absolutely no gaps because of CD sectors not matching HD sectors.
You get a CUE with File "01.wav" wave , File "02.wav" wave etc. , Burned this on CD and ready. It works perfect !
But I wanted a CUE with one track and with all the info from the songs.
So I took the burned DTS CD and ripped it with EAC to one wav with cue.
Added all data and reburned it.
Now I get interruptions in the DTS stream when it goes from one song to the next, which does not happen with the IMGBurn burned disc.
The right speakers fall out, but when I push the "go back to the start" of a song on the remote, I get the full signal again.

What is going wrong here ? How should I fix it ?


Top
 Profile  
Reply with quote  
PostPosted: Fri Jun 18, 2010 10:50 am 
Offline
Site Admin

Joined: Sat Aug 29, 2009 7:01 pm
Posts: 16
A brief edit was made to the original post due to copyright issues which did not affect the main content of the post.


Top
 Profile  
Reply with quote  
PostPosted: Fri Jun 18, 2010 10:52 am 
Offline
SBU Wiki Team
User avatar

Joined: Sun Aug 30, 2009 7:01 am
Posts: 282
Off the top of my head, the one question I could think of is whether you used the "detect gaps" function with EAC prior to ripping the disc. I'm out of the country right now, so I can't sit with EAC right now and try to retrace your steps, but that does sound particularly frustrating.


Top
 Profile  
Reply with quote  
PostPosted: Sat Jun 19, 2010 9:03 am 
Offline
Surround Junkie

Joined: Wed Sep 02, 2009 10:40 am
Posts: 38
River161 wrote:
Off the top of my head, the one question I could think of is whether you used the "detect gaps" function with EAC prior to ripping the disc. I'm out of the country right now, so I can't sit with EAC right now and try to retrace your steps, but that does sound particularly frustrating.


Yes, I always have "detect gaps" on and yes it is very frustrating.
Especially because IMGBurn when used with this option can really make a "live" album complete gapless from separate files, even if these are DTS WAV's,
something which Nero doesn't achieve.
I thought of the following, but can be completely wrong : it seems that the added data like songtitle and performer in the Cue
takes just enough time to be read by the player to be responsible for being too late at the right start of the track.
The times are exactly the same on the IMGBurn and Nero version !
What do you think of this ?


Top
 Profile  
Reply with quote  
PostPosted: Sat Jun 19, 2010 9:52 am 
Offline
Surround Junkie

Joined: Wed Sep 02, 2009 10:40 am
Posts: 38
To make things a bit clearer, I post a part of both CUE files from the burned CD's.

This one is made with IMGBurn and is complete gapless :

TITLE "ZZ"
PERFORMER "XX"
FILE "01.wav" WAVE
REM FILE-DECODED-SIZE 03:18:33
TRACK 01 AUDIO
TITLE "YY1"
PERFORMER "XX"
INDEX 01 00:00:00
FILE "02.wav" WAVE
REM FILE-DECODED-SIZE 02:28:70
TRACK 02 AUDIO
TITLE "YY2"
PERFORMER "XX"
INDEX 01 00:00:00
FILE "03.wav" WAVE
REM FILE-DECODED-SIZE 03:09:00
TRACK 03 AUDIO
TITLE "YY3"
PERFORMER "XX"
INDEX 01 00:00:00
FILE "04.wav" WAVE
REM FILE-DECODED-SIZE 01:49:02
TRACK 04 AUDIO
TITLE "YY4"
PERFORMER "XX"
INDEX 01 00:00:00


This one comes from Nero when I put the above in the player and rip. This one gives the mentioned problems when playing back :

PERFORMER "XX"
TITLE "ZZ"
FILE "XX-ZZ.wav" WAVE
TRACK 01 AUDIO
TITLE "YY1"
PERFORMER "XX"
INDEX 01 00:00:00
TRACK 02 AUDIO
TITLE "YY2"
PERFORMER "XX"
INDEX 01 03:18:33
TRACK 03 AUDIO
TITLE "YY3"
PERFORMER "XX"
INDEX 01 05:47:28
TRACK 04 AUDIO
TITLE "YY4"
PERFORMER "XX"
INDEX 01 08:56:28


Top
 Profile  
Reply with quote  
PostPosted: Tue Aug 17, 2010 1:07 pm 
Offline
Surround Junkie

Joined: Wed Sep 02, 2009 10:40 am
Posts: 38
Strange that no one of those hotshots seems to be able to find a solution......


Top
 Profile  
Reply with quote  
Display posts from previous:  Sort by  
Post new topic Reply to topic  [ 6 posts ] 

All times are UTC - 6 hours [ DST ]


Who is online

Users browsing this forum: No registered users and 1 guest


You cannot post new topics in this forum
You cannot reply to topics in this forum
You cannot edit your posts in this forum
You cannot delete your posts in this forum
You cannot post attachments in this forum

Search for:
Jump to:  
cron

Protected by Anti-Spam ACP POWERED_BY